shopwoobie.com - The Largest Bittorent System Login   |    Register
Latest Articles
Most searched
Hot torrents
Movie Torrents
View Torrent Info: Fantastic Beasts: The Crimes of Grindelwald (2018) [720p] [YTS] [YIFY]
View Torrent Info: Creed II (2018) [720p] [YTS] [YIFY]
View Torrent Info: Ralph Breaks the Internet (2018) [720p] [YTS] [YIFY]
View Torrent Info: Ralph Breaks the Internet (2018) [720p] [YTS] [YIFY]
View Torrent Info: The Possession of Hannah Grace (2018) [720p] [YTS] [YIFY]
View Torrent Info: Dragon Ball Super: Broly (2018) [720p] [YTS] [YIFY]
View Torrent Info: Mary Queen of Scots (2018) [720p] [YTS] [YIFY]
View Torrent Info: The Isle (2019) [720p] [YTS] [YIFY]
View Torrent Info: The Favourite (2018) [720p] [YTS] [YIFY]
View Torrent Info: In Like Flynn (2018) [720p] [YTS] [YIFY]
Hot torrents
TV Torrents
View Torrent Info: The.Flash.2014.S05E14.HDTV.x264-SVA[eztv]
View Torrent Info: the.orville.s02e07.web.x264-tbs[eztv]
View Torrent Info: star.trek.discovery.s02e05.webrip.x264-tbs[eztv]
View Torrent Info: The.Blacklist.S06E07.HDTV.x264-KILLERS[eztv]
View Torrent Info: Arrow.S07E13.HDTV.x264-SVA[eztv]
View Torrent Info: gotham.s05e06.web.x264-tbs[eztv]
View Torrent Info: Brooklyn.Nine-Nine.S06E06.HDTV.x264-SVA[eztv]
View Torrent Info: How.to.Get.Away.with.Murder.S05E13.HDTV.x264-SVA[eztv]
View Torrent Info: S.W.A.T.2017.S02E15.HDTV.x264-KILLERS[eztv]
View Torrent Info: The.Rookie.S01E12.HDTV.x264-KILLERS[eztv]
shopwoobie.com > Categories > Movies torrents > h.264/x264 torrents


Browse Movies torrents

Alita Battle Angel 2019 720p HDCAM x264 [MW] torrent



Download torrent: Download Alita Battle Angel 2019 720p HDCAM x264 [MW] torrent Magnet link Bookmark Torrent: Alita Battle Angel 2019 720p HDCAM x264 [MW] Alita Battle Angel 2019 720p HDCAM x264 [MW] torrent | if not working, try instead: Magnet Link
Info hash: F777DC1397C3AD10D2881DAE255B6ED882AE77E7
Category: Categories > Movies torrents > h.264/x264 torrents
Trackers:
9    View all torrent trackers >
Health:
 seeds: 127 ,  leechers: 5 |  Update >
Torrent language:  
Total Size: 1.00 GB
Torrent status: Added by trusted uploader Added by trusted uploader Trusted Uploader Site Friend Superman Sun
Uploader: Trusted Uploader Site Friend Superman Sun
Torrent added: 2019-02-10 11:26:08
 

Download Alita Battle Angel 2019 720p HDCAM x264 [MW] torrent if not working, try downloading torrent using Download Alita Battle Angel 2019 720p HDCAM x264 [MW] via Magnet Link




Torrent Description





General
Format : Matroska
Format version : Version 4
File size : 1.01 GiB
Duration : 1 h 58 min
Overall bit rate : 1 219 kb/s

Video
ID : 1
Format : AVC
Format/Info : Advanced Video Codec
Format profile : [email protected]
Format settings : CABAC / 4 Ref Frames
Format settings, CABAC : Yes
Format settings, RefFrames : 4 frames
Codec ID : V_MPEG4/ISO/AVC
Duration : 1 h 58 min
Bit rate : 1 100 kb/s
Width : 1 280 pixels
Height : 536 pixels
Display aspect ratio : 2.40:1
Frame rate mode : Constant
Frame rate : 29.970 (30000/1001) FPS
Color space : YUV
Chroma subsampling : 4:2:0
Bit depth : 8 bits
Scan type : Progressive
Bits/(Pixel*Frame) : 0.053
Stream size : 923 MiB (89%)
Writing library : x264 core 157 r2935 545de2f

Audio
ID : 2
Format : AAC LC
Codec ID : A_AAC-2
Duration : 1 h 58 min
Bit rate : 128 kb/s
Channel(s) : 2 channels
Channel layout : L R
Sampling rate : 48.0 kHz
Frame rate : 46.875 FPS (1024 SPF)
Compression mode : Lossy
Delay relative to video : -21 ms
Stream size : 109 MiB (11%)
Language : English
Default : Yes
Forced : No


Click To View Image











#moviezworldz -> To avoid fakes, ALWAYS check that the torrent was added on shopwoobie.com by moviezworldz

http://shopwoobie.com/



Download Alita Battle Angel 2019 720p HDCAM x264 [MW] torrent


Comments (please add your comment)
No comments



Home - Browse Torrents - Upload Torrent - Stat - Forum - FAQ - Login
shopwoobie.com is in compliance with copyrights
2006-2018 shopwoobie.com
SitemapEl Invencible | Konjiki No Gash!! - Raw Chap 78 | Tenis (253)